Mar
01

Lexi Belle – Nurse Eager To Please (3D Side by Side Video)

uploaded


If you aren’t feeling well then Lexi is the right nurse to see. Here she finds your body temperature dangerously low and acts quickly to warm you up. If her tits don’t do the trick she will fuck you without hesitation. If that isn’t enough, well, you were probably a goner anyway.

General
Complete name : Lexi Belle – Nurse Eager To Please
Format : Windows Media
File size : 3.20 GiB
Duration : 33mn 36s
Overall bit rate mode : Constant
Overall bit rate : 13.6 Mbps
Maximum Overall bit rate : 16.8 Mbps
Encoded date : UTC 2011-10-02 00:59:19.796

Video
Format : VC-1
Format profile : MP@HL
Codec ID : WMV3
Codec ID/Info : Windows Media Video 9
Codec ID/Hint : WMV3
Description of the codec : Windows Media Video 9 – Professional
Duration : 33mn 36s
Bit rate mode : Constant
Bit rate : 16.5 Mbps
Width : 1 280 pixels
Height : 720 pixels
Display aspect ratio : 16:9
Frame rate : 29.970 fps
Bit depth : 8 bits
Scan type : Progressive
Bits/(Pixel*Frame) : 0.599
Stream size : 3.88 GiB
Language : English (US)

Audio
Format : WMA
Format version : Version 2
Codec ID : 161
Codec ID/Info : Windows Media Audio
Description of the codec : Windows Media Audio 9.2 – 128 kbps, 44 kHz, stereo 1-pass CBR
Duration : 33mn 36s
Bit rate mode : Constant
Bit rate : 128 Kbps
Channel(s) : 2 channels
Sampling rate : 44.1 KHz
Bit depth : 16 bits
Stream size : 30.8 MiB (1%)
Language : English (US)

Posted in - 8-Sex.com -, 3D Adult - Real 3D | Tags:

Trackback from your site.

Leave a comment

uploadeduploadeduploadeduploaded

Rapidgator.net


1. 2. 3. 4. 5. 6. 7. 8. 9. 10. 11. 12. 13. 14. 15. 16. 17. 18. 19. 21. 22. 23. 24. 25. 26. 27. 28. 29. 30. 31. 32. 33. 34. 35. 36. 37. 38. 39. 40.

Your Site Here