Dec
23

Penthouse Girls – Sexy Singles (3D SBS Video)

uploaded

General
Complete name : Penthouse Girls – Sexy Singles (3D SBS Video)\Penthouse Girls – Sexy Singles 3D.mkv
Format : Matroska
Format version : Version 2
File size : 4.39 GiB
Duration : 54mn 0s
Overall bit rate mode : Variable
Overall bit rate : 11.6 Mbps
Movie name : PENTHOUSE SEXY SINGLES.Title0.Bluray3DRip
Encoded date : UTC 2012-07-08 14:28:17
Writing application : mkvmerge v5.4.0 (‘Piper’) built on Mar 10 2012 13:34:39
Writing library : libebml v1.2.3 + libmatroska v1.3.0

Video
Format : AVC
Format/Info : Advanced Video Codec
Format profile : High@L4.1
Format settings, CABAC : Yes
Format settings, ReFrames : 2 frames
Codec ID : V_MPEG4/ISO/AVC
Duration : 54mn 0s
Bit rate mode : Variable
Bit rate : 11.0 Mbps
Maximum bit rate : 16.8 Mbps
Width : 1 920 pixels
Height : 1 080 pixels
Display aspect ratio : 16:9
Frame rate mode : Constant
Frame rate : 23.976 fps
Color space : YUV
Chroma subsampling : 4:2:0
Bit depth : 8 bits
Scan type : Progressive
Bits/(Pixel*Frame) : 0.222
Stream size : 4.16 GiB (95%)
Default : Yes
Forced : No

Audio
Format : AC-3
Format/Info : Audio Coding 3
Mode extension : CM (complete main)
Format settings, Endianness : Big
Codec ID : A_AC3
Duration : 54mn 0s
Bit rate mode : Constant
Bit rate : 384 Kbps
Channel(s) : 2 channels
Channel positions : Front: L R
Sampling rate : 48.0 KHz
Bit depth : 16 bits
Compression mode : Lossy
Stream size : 148 MiB (3%)
Language : German
Default : Yes
Forced : No

Posted in - 8-Sex.com -, 3D Adult - Real 3D |

Trackback from your site.

Leave a comment

uploadeduploadeduploadeduploaded

Rapidgator.net


1. 2. 3. 4. 5. 6. 7. 8. 9. 10. 11. 12. 13. 14. 15. 16. 17. 18. 19. 21. 22. 23. 24. 25. 26. 27. 28. 29. 30. 31. 32. 33. 34. 35. 36. 37. 38. 39. 40.

Your Site Here